Watch Trailer Download Torrent Download RARBG Download 1337x Download ExtraTorrent Download Torrent Downloads Download YourBittorrent Sofia the First: Season 2, Episode 1.

OR

Season 1

Just One of the Princes
Rate
0
Error: please try again.
Sofia strives to become the first princess to earn a spot on her school's flying derby team. Although paired with the overly-anxious horse Minimus, Sofia learns to believe in herself and proves that a princess can do anything she sets her mind to.
The Big Sleepover
Rate
0
Error: please try again.
Sofia is put in a difficult position when she struggles to get her village friends Ruby and Jade and her new princess friends to get along and feel comfortable with each other during her first slumber party at the castle.
Let the Good Times Troll
Rate
0

Sofia The First Sull Season 1 Download Torrent Free

Error: please try again.
Sofia befriends the trolls that live in the cave near her new home but trouble ensues when her father can't let go of his fear of their banging, even when she brings them to the castle.
Cedric's Apprentice
Rate
0
Error: please try again.
Cedric hires Sofia to be his apprentice in order to steal her amulet.
A Royal Mess
Rate
0
Error: please try again.
The Golden Wing Circus is in town and the kids really want to go, but when James accidentally breaks a giant glass window his father was going to surprise his mother with as a result of breaking a castle rule, James and Sofia attempt to hide it while Amber distracts their parents.
The Shy Princess
Rate
0
Error: please try again.
Sofia helps Vivian, a shy classmate overcome her fear of speaking in public; meanwhile, Clover makes friends with her dragon.
Blue Ribbon Bunny
Rate
0
Error: please try again.
Sofia decides to enter Clover the rabbit in the Village Faire pet contest, but after pushing a little too hard, Sofia discovers a few things about friendship when she ends up unintentionally hurting his feelings before the contest.
The Princess Test
Rate
0
Error: please try again.
When Flora, Fauna and Merryweather announce a big test, the princesses are put to the test but only one of them can win the trophy for showing the most important princess trait of all: kindness.
Baileywick's Day Off
Rate
0
Error: please try again.
Baileywick celebrates his birthday with his brother, Nigel, with help from Sofia.
Tri-Kingdom Picnic
Rate
0
Error: please try again.
Sofia shows James how to be a good sport.
The Little Witch
Rate
0
Error: please try again.
A little witch's hexes causes big trouble for Sofia and her friends. When she asks the witch to stop she says it's going to be hard. Sofia helps her mend her evil ways but will Sofia stop the hexes or will chaos have it's way?
Two to Tangu
Rate
0
Error: please try again.
Sofia and Amber visit the kingdom of Tangu and meet Princess Jasmine.
Finding Clover
Rate
0
Error: please try again.
Clover is frustrated that Sofia is unable to spend time with him.

Sofia Thefirst Sull Season1 Download Torrent Free

The Amulet of Avalor
Rate
0
Error: please try again.
Sofia's magical amulet goes missing.
The Buttercups
Rate
0
Error: please try again.
King Roland insists on sending Baileywick on a hike with Sofia.
Make Way for Miss Nettle
Rate
Sofia thefirst sull season1 download torrent 1
0
Sofia Thefirst Sull Season1 Download Torrent
Error: please try again.
A new fairy teacher arrives at Royal Prep.
The Amulet and the Anthem
Rate
0
Error: please try again.
Sofia is chosen to sing.
Tea for Too Many
Rate
0
Error: please try again.
Sofia hosts a Royal Prep tea party.
Princess Butterfly
Rate
0
Error: please try again.
The students at Royal Prep make their own costumes.
Great Aunt-Venture
Rate
0
Error: please try again.
Sofia reluctantly agrees to help Aunt Tilly bake a pie.
The Baker King
Rate
0
Error: please try again.
One hectic morning, King Roland wishes he could have the simple life of a baker and gets his wish!
The Floating Palace
Rate
0
Error: please try again.
During family vacation on the King's floating palace, Sofia befriends a curious, young mermaid.
Holiday in Enchancia
Rate
0
Error: please try again.
When a storm keeps the King from going home for the holidays, Sofia leads her family to find him.
Four's a Crowd
Rate
0
Error: please try again.
Sofia invites Jade and Ruby to decorate a flying coach with Amber for the annual Flylight Pageant.

Sofia, is a little girl with a commoner's background until her mom marries the King and suddenly she is royalty. With the help of the three fairies in charge of the Royal Training Academy, Sofia learns that looking like a princess isn't all that hard but behaving like one must come from the heart.
General
Complete name :Sofia the First Season 3 Episode 18.mp4
Format : MPEG-4
Format profile : Base Media
Codec ID : isom (isom/iso2/avc1/mp41)
File size : 105 MiB
Duration : 23mn 11s
Overall bit rate : 631 Kbps
Writing application : Lavf57.20.100
Video
ID : 1
Format : AVC
Format/Info : Advanced Video Codec
Format profile : [email protected]
Format settings, CABAC : No
Format settings, ReFrames : 1 frame
Codec ID : avc1
Codec ID/Info : Advanced Video Coding
Duration : 23mn 11s
Bit rate : 530 Kbps
Width : 640 pixels
Height : 360 pixels
Display aspect ratio : 16:9
Frame rate mode : Constant
Frame rate : 23.976 (24000/1001) fps
Color space : YUV
Chroma subsampling : 4:2:0
Bit depth : 8 bits
Scan type : Progressive
Bits/(Pixel*Frame) : 0.096
Stream size : 87.9 MiB (84%)
Audio
ID : 2
Format : AAC
Format/Info : Advanced Audio Codec
Format profile : LC
Codec ID : 40
Duration : 23mn 11s
Bit rate mode : Constant
Bit rate : 96.0 Kbps
Channel(s) : 2 channels
Channel positions : Front: L R
Sampling rate : 44.1 KHz
Frame rate : 43.066 fps (1024 spf)
Compression mode : Lossy
Stream size : 15.9 MiB (15%)
Default : Yes
Alternate group : 1

Coments are closed
Scroll to top